首页 » 科幻片 » [4K电影]宇宙空间 2013 (HEVC x265 10bit)

12755 0
标签:

174421gw1leae0az00eoiz[1]

General
Unique ID : 174428706453095184328935147984425356543(0x8339BF344E4F869CAAACB61B62388CFF)
Complete name : Space Unraveling the Cosmos 2013 (2160p x265 10bit Joy).mkv
Format : Matroska
Format version : Version 4 / Version 2
File size : 1.38 GiB
Duration : 48mn 25s
Overall bit rate : 4092 Kbps
Encoded date : UTC 2015-11-06 11:09:35
Writing application : mkvmerge v8.4.0 (‘A better way to fly’) 64bit
Writing library : libebml v1.3.1 + libmatroska v1.4.2

Video
ID : 1
Format : HEVC
Format/Info : High Efficiency Video Coding
Format profile : Main 10@L5.1@Main
Codec ID : V_MPEGH/ISO/HEVC
Duration : 48min 24s
Bit rate : 4008 Kbps
Width : 3840 pixels
Height : 2160 pixels
Display aspect ratio : 16:9
Frame rate mode : Constant
Frame rate : 29.970 (30000/1001) fps
Color space : YUV
Chroma subsampling : 4:2:0
Bit depth : 10 bits
Bits/(Pixel*Frame) : 0.016
Stream size : 1.36 GiB (98%)
Writing library : x265 1.8+38-fe65544b6c40:[Windows][GCC 4.8.2][64 bit] 10bit
Encoding settings : wpp / ctu=64 / min-cu-size=8 / max-tu-size=32 / tu-intra-depth=1 / tu-inter-depth=1 / me=1 / psy=1 / subme=2 / merange=57 / no-rect / no-amp / max-merge=2 / temporal-mvp / no-early-skip /  rdpenalty=0 / no-tskip / no-tskip-fast / strong-intra-smoot
Default : Yes
Forced : No

Audio
ID : 2
Format : AAC
Format/Info : Advanced Audio Codec
Mode extension : HE-AAC / LC
Codec ID : A_AAC
Duration : 48min 24s
Bit rate : 82.2 Kbps  
Channel(s) : 2 channels
Channel positions : Front: L R
Sampling rate : 48.0 KHz / 24.0 KHz
Frame rate : 23.438 fps (1024 spf)
Compression mode : Lossy
Delay relative to video : 40ms
Stream size : 28.5 MiB (2%)
Language : English
Default : Yes
Forced : No

点此下载