首页 » 科幻片 » [4K电影]《超体》HDR版

9727 0
标签:

◎译  名 超体/超能毒贩/超体露西(台)/绝路杀姬(港)
◎片  名 Lucy
◎年  代 2014
◎国  家 法国  
◎类  别 动作/科幻/惊悚  
◎语  言 英语
◎IMDB评分 6.5/10 from 121,436 users  
◎片  长 1h 29mn   
◎导  演 吕克·贝松 Luc Besson
◎主  演 斯嘉丽·约翰逊 Scarlett Johansson ….露西 Lucy
      摩根·弗里曼 Morgan Freeman ….诺曼博士 Professor Norman
      崔岷植 Min-sik Choi ….张先生 Mr. Jang
      阿莫尔·瓦科德 Amr Waked ….皮埃尔·德尔·里奥 Pierre Del Rio
      Julian Rhind-Tutt ….The Limey
      乔汉·菲利普·阿斯 ….Johan Philip Asbæk Richard
      安娜蕾·提普顿 Analeigh Tipton ….Caroline
      Nicolas Phongpheth ….Jii
      Jan Oliver Schroeder ….French Mule
        卢卡·安杰莱蒂 Luca Angeletti ….Italian Mule
      Loïc Brabant ….Professor
      Pierre Grammont ….Professor
      Pierre Poirot ….Professor
      Bertrand Quoniam ….Professor
      Pascal Loison ….Drug Addict
      Pierre Gérard ….Airport Doctor
      Bertrand Quoniam ….Professor     
      Pascal Loison ….Drug Addict
      Pierre Gérard ….Airport Doctor
      Isabelle Cagnat ….Airport Nurse
      Frederic Chau ….Cabin Manager
      Claire Tran ….Flight Attendant
      François Legrand ….Business Man Plane
      Bob Martet ….Customs Officer
      塞德里克·舍瓦尔姆 Cédric Chevalme ….Cop Daniel
      Alexis Rangheard ….Cop Robert
      Tonio Descanvelle ….Cop Sergeant


Format                         : Matroska
Format version                 : Version 4 / Version 2
File size                      : 22.8 GiB
Duration                       : 1 h 29 min
Overall bit rate               : 36.5 Mb/s
Movie name                     : Lucy (2014) – Release by MaxBro
Encoded date                   : UTC 2017-02-02 16:42:03
Writing application            : mkvmerge v9.4.2 (‘So High’) 64bit
Writing library                : libebml v1.3.4 + libmatroska v1.4.5


Video
ID                             : 1
Format                         : HEVC
Format/Info                    : High Efficiency Video Coding
Format profile                 : Main 10@L5@Main
Codec ID                       : V_MPEGH/ISO/HEVC
Duration                       : 1 h 29 min
Bit rate                       : 30.8 Mb/s
Width                          : 3 840 pixels
Height                         : 1 600 pixels
Display aspect ratio           : 2.40:1
Frame rate mode                : Constant
Frame rate                     : 23.976 (23976/1000) FPS
Color space                    : YUV
Chroma subsampling             : 4:2:0 (Type 2)
Bit depth                      : 10 bits
Bits/(Pixel*Frame)             : 0.209
Stream size                    : 19.2 GiB (84%)
Title                          : Lucy (2014)
Writing library                : x265 2.2+2-998d4520d1cf:[Windows][GCC 6.2.0][64 bit] 10bit
Encoding settings              : cpuid=1050111 / frame-threads=3 / numa-pools=12 / wpp / no-pmode / no-pme / no-psnr / no-ssim / log-level=2 / input-csp=1 / input-res=3840×1600 / interlace=0 / total-frames=0 / level-idc=0 / high-tier=1 / uhd-bd=0 / ref=1 / no-allow-non-conformance / repeat-headers / annexb / no-aud / no-hrd / info / hash=0 / no-temporal-layers / open-gop / min-keyint=23 / keyint=250 / bframes=3 / b-adapt=2 / b-pyramid / bframe-bias=0 / rc-lookahead=40 / lookahead-slices=0 / scenecut=40 / no-intra-refresh / ctu=32 / min-cu-size=8 / no-rect / no-amp / max-tu-size=32 / tu-inter-depth=1 / tu-intra-depth=1 / limit-tu=0 / rdoq-level=2 / signhide / no-tskip / nr-intra=0 / nr-inter=0 / no-constrained-intra / strong-intra-smoothing / max-merge=2 / limit-refs=0 / no-limit-modes / me=2 / subme=7 / merange=57 / temporal-mvp / weightp / weightb / no-analyze-src-pics / no-deblock / no-sao / no-sao-non-deblock / rd=6 / no-early-skip / no-rskip / fast-intra / no-tskip-fast / no-cu-lossless / no-b-intra / rdpenalty=0 / psy-rd=4.00 / psy-rdoq=8.00 / no-rd-refine / analysis-mode=0 / no-lossless / cbqpoffs=0 / crqpoffs=0 / rc=crf / crf=22.0 / qcomp=0.80 / qpstep=1 / stats-write=0 / stats-read=0 / ipratio=1.10 / pbratio=1.00 / aq-mode=3 / aq-strength=1.00 / no-cutree / zone-count=0 / no-strict-cbr / qg-size=32 / no-rc-grain / qpmax=51 / qpmin=0 / sar=0 / overscan=0 / videoformat=5 / range=0 / colorprim=9 / transfer=16 / colormatrix=9 / chromaloc=1 / chromaloc-top=2 / chromaloc-bottom=2 / display-window=0 / master-display=G(13250,34500)B(7500,3000)R(34000,16000)WP(15635,16450)L(10000000,50) / max-cll=1000,400 / min-luma=0 / max-luma=1023 / log2-max-poc-lsb=8 / vui-timing-info / vui-hrd-info / slices=1 / opt-qp-pps / opt-ref-list-length-pps / no-multi-pass-opt-rps / scenecut-bias=0.05
Language                       : English
Default                        : Yes
Forced                         : No
Color range                    : Limited
Color primaries                : BT.2020
Transfer characteristics       : SMPTE ST 2084
Matrix coefficients            : BT.2020 non-constant
Mastering display color primar : R: x=0.680000 y=0.320000, G: x=0.265000 y=0.690000, B: x=0.150000 y=0.060000, White point: x=0.312700 y=0.329000
Mastering display luminance    : min: 0.0050 cd/m2, max: 1000.0000 cd/m2
Maximum Content Light Level    : 1000 cd/m2
Maximum Frame-Average Light Le : 400 cd/m2


Audio #1
ID                             : 2
Format                         : DTS
Format/Info                    : Digital Theater Systems
Mode                           : 16
Format settings, Endianness    : Big
Codec ID                       : A_DTS
Duration                       : 1 h 29 min
Bit rate mode                  : Constant
Bit rate                       : 768 kb/s
Channel(s)                     : 6 channels
Channel positions              : Front: L C R, Side: L R, LFE
Sampling rate                  : 48.0 kHz
Frame rate                     : 93.750 FPS (512 spf)
Bit depth                      : 24 bits
Compression mode               : Lossy
Stream size                    : 491 MiB (2%)
Title                          : DTS ITA
Language                       : Italian
Default                        : Yes
Forced                         : No


Audio #2
ID                             : 3
Format                         : AC-3
Format/Info                    : Audio Coding 3
Mode extension                 : CM (complete main)
Format settings, Endianness    : Big
Codec ID                       : A_AC3
Duration                       : 1 h 29 min
Bit rate mode                  : Constant
Bit rate                       : 640 kb/s
Channel(s)                     : 6 channels
Channel positions              : Front: L C R, Side: L R, LFE
Sampling rate                  : 48.0 kHz
Frame rate                     : 31.250 FPS (1536 spf)
Bit depth                      : 16 bits
Compression mode               : Lossy
Stream size                    : 409 MiB (2%)
Title                          : AC3 ITA
Language                       : Italian
Default                        : No
Forced                         : No


Audio #3
ID                             : 4
Format                         : DTS
Format/Info                    : Digital Theater Systems
Format profile                 : MA / Core
Mode                           : 16
Format settings, Endianness    : Big
Codec ID                       : A_DTS
Duration                       : 1 h 29 min
Bit rate mode                  : Variable / Constant
Bit rate                       : 4 284 kb/s / 1 509 kb/s
Channel(s)                     : 6 channels
Channel positions              : Front: L C R, Side: L R, LFE
Sampling rate                  : 48.0 kHz
Frame rate                     : 93.750 FPS (512 spf)
Bit depth                      : 24 bits
Compression mode               : Lossless / Lossy
Stream size                    : 2.67 GiB (12%)
Title                          : DTS-HD MA 5.1 ENG
Language                       : English
Default                        : No
Forced                         : No


Text #1
ID                             : 5
Format                         : UTF-8
Codec ID                       : S_TEXT/UTF8
Codec ID/Info                  : UTF-8 Plain Text
Duration                       : 58 min 29 s
Bit rate                       : 3 b/s
Count of elements              : 61
Stream size                    : 1.42 KiB (0%)
Title                          : Italian FORCED
Language                       : Italian
Default                        : Yes
Forced                         : No


Text #2
ID                             : 6
Format                         : UTF-8
Codec ID                       : S_TEXT/UTF8
Codec ID/Info                  : UTF-8 Plain Text
Duration                       : 1 h 27 min
Bit rate                       : 37 b/s
Count of elements              : 773
Stream size                    : 24.2 KiB (0%)
Title                          : Italian Regular
Language                       : Italian
Default                        : No
Forced                         : No


Text #3
ID                             : 7
Format                         : UTF-8
Codec ID                       : S_TEXT/UTF8
Codec ID/Info                  : UTF-8 Plain Text
Duration                       : 50 min 6 s
Bit rate                       : 3 b/s
Count of elements              : 59
Stream size                    : 1.42 KiB (0%)
Title                          : Forced
Language                       : English
Default                        : No
Forced                         : No


Text #4
ID                             : 8
Format                         : UTF-8
Codec ID                       : S_TEXT/UTF8
Codec ID/Info                  : UTF-8 Plain Text
Duration                       : 1 h 20 min
Bit rate                       : 43 b/s
Count of elements              : 839
Stream size                    : 25.5 KiB (0%)
Language                       : English
Default                        : No
Forced                         : No


Text #5
ID                             : 9
Format                         : UTF-8
Codec ID                       : S_TEXT/UTF8
Codec ID/Info                  : UTF-8 Plain Text
Duration                       : 1 h 20 min
Bit rate                       : 48 b/s
Count of elements              : 1014
Stream size                    : 28.9 KiB (0%)
Title                          : SDH
Language                       : English
Default                        : No
Forced                         : No

点击使用磁力链下载