首页 » 科幻片 » [4K高清纪录片] 哈勃的最后边界Hubble.The.Final.Frontier

8319 0
标签:

General
Complete name : Hubble.The.Final.Frontier.2015.2160p.WEB-DL.Eng.ULTRAHDCLUB.mp4
Format : MPEG-4
Format version : Base Media / Version 2
Codec ID : mp42 (mp42/mp41/isom/avc1)
File size : 1.04 GiB
Duration : 12mn 13s
Overall bit rate mode: Variable
Overall bit rate : 12.2 Mbps
Encoded date : UTC 2015-10-06 13:09:06
Tagged date : UTC 2015-10-06 13:09:06

Video
ID : 1
Format : AVC
Format/Info : Advanced Video Codec
Format profile : High@L5.1
Format settings, CABAC : Yes
Format settings, ReFrames : 5 frames
Codec ID : avc1
Codec ID/Info : Advanced Video Coding
Duration : 12mn 13s
Bit rate : 11.8 Mbps
Width : 3840 pixels
Height : 2160 pixels
Display aspect ratio : 16:9
Frame rate mode : Constant
Frame rate : 25.000 fps
Color space : YUV
Chroma subsampling : 4:2:0
Bit depth : 8 bits
Scan type : Progressive
Bits/(Pixel*Frame) : 0.057
Stream size : 1.01 GiB (97%)
Writing library : x264 core 148 r11 73ae2d1
Encoding settings : cabac=1 / ref=5 / deblock=1:0:0 / analyse=0x3:0x133 / me=umh / subme=8 / psy=1 /  psy_rd=1.00:0.00 / mixed_ref=1 / me_range=16 / chroma_me=1 / trellis=1 / 8x8dct=1 / cqm=0 /  deadzone=21,11 / fast_pskip=1 / chroma_qp_offset=-2 / threads=67 /
Encoded date : UTC 2015-10-06 13:09:06
Tagged date : UTC 2015-10-06 13:09:06
Color range : Limited
Color primaries : BT.709
Transfer characteristics : BT.709
Matrix coefficients : BT.709

Audio
ID : 2
Format : AAC
Format/Info : Advanced Video Codec
Mode extension : LC
Codec ID : 40
Duration : 12mn 13s
Bit rate mode : Variable
Bit rate : 384 Kbps  
Channel(s) : 2 channels
Channel(s)_Original : 6 channels
Channel positions : Front: L C R, Side: L R, LFE
Sampling rate : 48.0 KHz
Frame rate : 46.875 fps (1024 spf)
Compression mode : Lossy
Stream size : 33.6 MiB (3%)
Encoded date : UTC 2015-10-06 13:09:06
Tagged date : UTC 2015-10-06 13:09:06

 

点击磁力链下载

百度云MP4    密码: wdwf