首页 » 动作片 » [4K电影] 代号47 (2015) Hitman: Agent 47

10000 0
标签:
◎译  名 代号47/刺客特攻47(港)/刺客任务: 杀手47(台)/杀手:代号47
◎片  名 Hitman: Agent 47
◎年  代 2015
◎国  家 美国
◎类  别 动作/犯罪/惊悚
◎语  言 英语
◎上映日期 2015-08-21(美国)
◎IMDb评分  5.8/10 from 28,582 users
◎IMDb链接  http://www.imdb.com/title/tt2679042/
◎豆瓣评分 5.9/10 from 6,067 users
◎豆瓣链接 http://movie.douban.com/subject/21350962/
◎片  长 96分钟
◎导  演 亚历山大·巴赫 Aleksander Bach
◎主  演 鲁伯特·弗兰德 Rupert Friend
      扎克瑞·昆图 Zachary Quinto
      塞伦·希德 Ciarán Hinds
      托马斯·克莱舒曼 Thomas Kretschmann
      汉娜·韦尔 Hannah Ware
      丹·巴克达尔 Dan Bakkedahl
      埃米里奥·瑞弗拉 Emilio Rivera
      罗夫·凯尼斯 Rolf Kanies
      米凯拉·卡斯帕 Michaela Caspar
      杨颖 Angelababy


Format                         : Matroska
Format version                 : Version 4 / Version 2
File size                      : 44.9 GiB
Duration                       : 1 h 36 min
Overall bit rate               : 66.7 Mb/s
Encoded date                   : UTC 2016-10-03 05:20:17
Writing application            : mkvmerge v9.4.0 (‘Knurl’) 64bit
Writing library                : libebml v1.3.4 + libmatroska v1.4.5
IsTruncated                    : Yes
 
Video
ID                             : 1
Format                         : HEVC
Format/Info                    : High Efficiency Video Coding
Format profile                 : Main 10@L5.1@High
Codec ID                       : V_MPEGH/ISO/HEVC
Duration                       : 1 h 36 min
Bit rate                       : 60.8 Mb/s
Width                          : 3 840 pixels
Height                         : 2 160 pixels
Display aspect ratio           : 16:9
Frame rate mode                : Constant
Frame rate                     : 23.976 (24000/1001) FPS
Color space                    : YUV
Chroma subsampling             : 4:2:0
Bit depth                      : 10 bits
Bits/(Pixel*Frame)             : 0.306
Stream size                    : 40.9 GiB (91%)
Writing library                : x265 2.0+18-b0ec268aef60:[Windows][GCC 6.1.0][64 bit] 10bit
Encoding settings              : wpp / ctu=64 / min-cu-size=8 / max-tu-size=32 / tu-intra-depth=1 / tu-inter-depth=1 / me=1 / subme=2 / merange=57 / no-rect / no-amp / max-merge=2 / temporal-mvp / no-early-skip / rskip / rdpenalty=0 / no-tskip / no-tskip-fast / strong-intra-smoothing / no-lossless / no-cu-lossless / no-constrained-intra / no-fast-intra / open-gop / no-temporal-layers / interlace=0 / keyint=250 / min-keyint=23 / scenecut=40 / rc-lookahead=20 / lookahead-slices=8 / bframes=4 / bframe-bias=0 / b-adapt=2 / ref=3 / limit-refs=3 / no-limit-modes / weightp / no-weightb / aq-mode=1 / qg-size=32 / aq-strength=1.00 / cbqpoffs=0 / crqpoffs=0 / rd=3 / psy-rd=2.00 / rdoq-level=0 / psy-rdoq=0.00 / log2-max-poc-lsb=8 / no-rd-refine / signhide / deblock=0:0 / sao / no-sao-non-deblock / b-pyramid / cutree / no-intra-refresh / rc=abr / bitrate=61000 / qcomp=0.60 / qpmin=0 / qpmax=69 / qpstep=4 / vbv-maxrate=160000 / vbv-bufsize=160000 / ipratio=1.40 / pbratio=1.30
Default                        : Yes
Forced                         : Yes
Color range                    : Limited
Color primaries                : BT.2020
Transfer characteristics       : SMPTE ST 2084
Matrix coefficients            : BT.2020 non-constant
Mastering display color primar : R: x=0.680000 y=0.320000, G: x=0.265000 y=0.690000, B: x=0.150000 y=0.060000, White point: x=0.312700 y=0.329000
Mastering display luminance    : min: 0.0001 cd/m2, max: 1000.0000 cd/m2
Maximum Content Light Level    : 1000 cd/m2
Maximum Frame-Average Light Le : 500 cd/m2
 
Audio #1
ID                             : 2
Format                         : DTS
Format/Info                    : Digital Theater Systems
Format profile                 : MA / ES Matrix / Core
Mode                           : 16
Format settings, Endianness    : Big
Codec ID                       : A_DTS
Duration                       : 1 h 36 min
Bit rate mode                  : Variable / Constant / Constant
Bit rate                       : 5 309 kb/s / 1 509 kb/s / 1 509 kb/s
Channel(s)                     : 8 channels / 7 channels / 6 channels
Channel positions              : Front: L C R, Side: L R, Back: L R, LFE / Front: L C R, Side: L R, Back: C, LFE / Front: L C R, Side: L R, LFE
Sampling rate                  : 48.0 kHz
Frame rate                     : 93.750 FPS (512 spf)
Bit depth                      : 24 bits
Compression mode               : Lossless / Lossy / Lossy
Delay relative to video        : 1 ms
Stream size                    : 3.57 GiB (8%)
Language                       : English
Default                        : Yes
Forced                         : No
 
Audio #2
ID                             : 3
Format                         : AC-3
Format/Info                    : Audio Coding 3
Mode extension                 : CM (complete main)
Format settings, Endianness    : Big
Codec ID                       : A_AC3
Duration                       : 1 h 36 min
Bit rate mode                  : Constant
Bit rate                       : 640 kb/s
Channel(s)                     : 6 channels
Channel positions              : Front: L C R, Side: L R, LFE
Sampling rate                  : 48.0 kHz
Frame rate                     : 31.250 FPS (1536 spf)
Bit depth                      : 16 bits
Compression mode               : Lossy
Delay relative to video        : 12 ms
Stream size                    : 441 MiB (1%)
Language                       : English
Default                        : No
Forced                         : No

点击使用磁力链下载